#TITLE:Jing Wu Men;
#SUBTITLE:;
#ARTIST:Show Luo;
#TITLETRANSLIT:Jing Wu Men;
#SUBTITLETRANSLIT:;
#ARTISTTRANSLIT:La Chi Tuong;
#CREDIT:Chu Nhat , 28-12-2008;
#BANNER:Jing Wu Men-bn.png;
#BACKGROUND:Jing Wu Men-bg.png;
#LYRICSPATH:;
#CDTITLE:pm4cd.png;
#MUSIC:Jing Wu Men.mp3;
#OFFSET:0.520;
#SAMPLESTART:65.190;
#SAMPLELENGTH:20.000;
#SELECTABLE:YES;
#BPMS:0.000=129.990,206.000=64.990,208.000=129.990;
#STOPS:;
#BGCHANGES:;
// cache tags:
#FIRSTBEAT:2.500;
#LASTBEAT:474.000;
#SONGFILENAME:Songs/Lon`/Jing Wu Men/Jing Wu Men.sm;
#HASMUSIC:1;
#HASBANNER:1;
#MUSICLENGTH:223.628;
// end cache tags

//---------------dance-single - ----------------
#NOTES:
     dance-single:
     :
     Hard:
     15:
     1.000,1.000,1.000,0.157,0.452,1118.000,516.000,35.000,0.000,207.000:
0000
0000
0000
0000
0000
0000
0000
0000
0000
0000
1000
0100
0010
0000
0001
0010
,
0100
0000
0010
0000
1101
0000
0000
1101
0000
0000
1101
0000
0000
0000
0001
0010
,
0100
0000
0001
1000
0100
0000
0010
0000
1101
0000
0000
1101
0000
0000
1101
0000
,
0000
0111
0111
0111
1111
0000
1010
0101
,
0010
0001
1010
0001
1100
0010
1001
0110
,
1000
0101
0011
1100
1100
0001
1010
0101
,
0010
1000
0110
1000
0101
0010
1001
0101
,
0010
0000
1100
0000
0011
0000
0101
0000
1101
0010
0001
0100
1010
0000
0110
1000
,
0010
0100
1000
0100
0011
0000
0000
0000
1010
0001
0010
1000
0110
0000
0101
1000
,
0010
0100
0010
0001
1100
0000
0110
0000
0101
0010
0001
0100
1010
0000
1001
0100
,
0010
1000
0001
0100
0011
0000
0101
0000
1101
0000
0101
0000
1101
0000
0101
0000
,
1101
0000
0101
0000
1101
0000
0101
0000
1201
0010
1000
0001
1010
0000
0001
0000
,
1000
0000
0011
0000
1001
0000
1010
0300
0021
1000
0001
0100
1001
0000
0100
0000
,
0001
0000
1100
0000
0101
0000
0001
0030
2101
0010
0001
0100
0011
0000
0010
0000
,
0001
0000
0110
0000
0011
0000
0001
3000
0102
1000
0010
0100
1010
0000
0100
0000
,
1000
0100
1000
0000
0100
0000
0010
0003
1100
0000
0001
0000
0110
0000
1000
0000
,
0100
0011
1100
0101
1010
0100
0101
0010
,
1000
0101
0011
0100
1010
0000
0101
1000
,
0010
0000
1100
0000
0011
0000
0100
0000
1010
0000
0001
0000
0110
0000
0000
0100
,
0000
0100
1000
0100
0010
0000
0001
0001
1010
0000
0000
0000
0011
0000
0100
0000
,
0001
1010
0110
0101
1001
0010
1100
0001
,
0010
1100
0110
0010
1001
0000
1100
0010
,
0001
0110
1001
0010
0101
1000
0011
0100
,
1000
0000
0100
0000
0010
0000
0001
0000
0010
0000
0100
0000
0010
0000
0001
0000
0010
0000
0100
0000
1000
0000
0100
0000
2011
0000
0000
0100
0000
0000
0001
0000
0000
0010
0000
0000
0101
0000
0000
0000
0000
0000
0001
0000
0000
0000
0000
0000
,
0100
0000
0110
0000
0101
0000
0110
3000
0021
1000
0001
0100
1001
0000
0100
0000
,
0001
0000
1100
0000
0101
0000
0100
0030
1102
0010
0100
1000
0110
0000
1000
0000
,
0010
0000
1100
0000
1010
0000
0010
0003
1200
0001
1000
0010
1001
0000
0010
0000
,
0001
0000
1010
0000
0011
0000
0001
0300
1011
0000
0100
0000
0101
0000
0010
0000
,
1000
0110
1001
0101
0011
1000
0110
0001
,
0010
1100
0011
1000
0110
0000
1001
0010
,
1000
0000
0011
0000
1100
0000
0001
0000
1010
0000
0100
0000
0101
0000
0000
1000
,
0000
0001
0010
0100
1000
0000
0100
0100
1001
0000
0000
0000
1010
0000
0100
0000
,
0010
1100
0011
0101
1010
0100
1001
0010
,
0100
1001
0101
1000
0110
0000
0101
1000
,
0010
0000
1001
0000
0101
0000
1000
0000
0011
0000
0001
0100
1010
0000
0100
0010
,
1100
0000
1000
0100
0011
0000
1000
0010
2111
0000
0100
0010
0001
0100
0001
0010
,
0100
0000
0011
0000
0101
0000
0110
3000
0101
0000
0010
0000
1001
0000
0100
0000
,
0010
0000
0101
0000
1010
0000
0001
0000
1200
0000
0001
1000
0010
1000
0010
0001
,
0010
0000
1001
0000
0011
0000
1000
0300
1010
0000
0001
0000
1100
0000
0010
0000
,
1000
0000
0101
0000
0011
0000
0100
0000
1120
0000
0001
1000
0100
0001
1000
0100
,
1000
0000
0101
0000
1100
0000
0101
0030
1001
0000
0010
0000
0101
0000
0100
0000
,
0010
0000
1100
0000
1010
0000
0100
0000
0012
0000
0100
0010
0100
1000
0100
0010
,
0100
0000
1100
0000
0110
0000
1000
0003
1010
0000
0100
0000
1001
0000
0010
0000
,
0100
0000
0011
0000
1100
0000
0100
0000
1111
0000
0010
0010
0011
0000
0100
0100
,
0101
0000
1000
1000
1100
0000
0001
0001
1001
0000
0010
0010
1010
0000
1000
1000
,
1100
0000
0001
0001
0011
0000
0100
0100
0101
0000
0001
0001
0011
0000
0100
0100
,
0110
0000
1000
1000
1010
0000
0100
0100
0110
0000
0010
0010
0011
0000
0100
0100
,
1100
0000
0010
0010
1010
0000
0001
0001
1111
0000
0100
0100
0111
0000
0001
0001
,
0101
0000
0010
0010
1110
0000
0001
0001
0011
0000
1000
1000
1101
0000
0100
0100
,
0110
0000
0010
0010
1110
0000
0001
0001
1001
0000
0100
0100
1110
0000
0010
0010
,
0011
0000
1000
1000
1101
0000
0001
0001
0101
0000
1101
0000
1101
0000
1000
0000
,
0111
0000
0111
0000
0001
0000
0010
0000
2202
0000
0000
0000
0000
3303
0011
0110
,
1101
0001
0110
1000
0100
0011
1100
0101
,
1010
0100
0101
0010
1000
0101
0011
0100
,
1010
0000
0101
1000
0010
1100
0011
0100
,
1010
0001
0110
0001
1000
0101
0011
0100
,
1010
0000
0011
0100
0001
1010
0110
0101
,
1001
0010
1100
0001
0010
1100
0110
0010
,
1001
0000
1100
0010
0001
0110
1001
0010
,
0102
0000
1000
0000
0110
0000
0100
0003
2000
0000
0101
0000
0011
0000
0010
3000
,
1111
0100
0101
0010
1000
0110
1001
0101
,
0011
1000
0110
0001
0010
1100
0011
1000
,
0110
0000
1001
0010
1000
0011
1100
0001
,
1010
0100
0101
1000
0001
1100
0011
0100
,
1011
0000
1010
0100
0010
1100
0011
0101
,
1010
0100
1001
0010
0100
1001
0101
1000
,
0110
0000
0101
1000
0010
1001
0101
1000
,
0021
0000
1000
0000
0101
0000
1000
0030
0200
0000
0011
0000
1010
0000
0001
0300
,
0010
0000
1000
0100
0010
0000
0001
0000
0010
0100
1000
0000
0011
0000
0000
0000
,
2111
0000
0100
0010
0001
0100
0001
0010
0100
0000
0011
0000
0101
0000
0110
3000
,
0101
0010
1001
0100
0010
0101
1010
0001
,
1200
0000
0001
1000
0010
1000
0010
0001
0010
0000
1001
0000
0011
0000
1000
0300
,
1010
0001
1100
0010
1000
0101
0011
0100
,
1120
0000
0001
1000
0100
0001
1000
0100
1000
0000
0101
0000
1100
0000
0101
0030
,
1001
0010
0101
0100
0010
1100
1010
0100
,
0012
0000
0100
0010
0100
1000
0100
0010
0100
0000
1100
0000
0110
0000
1000
0003
,
1010
0000
0100
0010
1101
0000
0010
1000
0111
0000
0001
0010
1101
0000
0111
0000
,
1112
0000
1000
0100
1000
0100
0010
0100
1000
0000
0110
0000
1100
0000
0110
0003
,
1010
0100
0011
0100
1000
0110
1001
0010
,
2010
0000
0100
0010
0001
0010
0100
0010
0001
0000
0110
0000
0101
0000
0010
3000
,
0011
1000
0101
0010
0001
1100
1001
0100
,
1201
0000
1000
0001
0010
0001
0010
1000
0001
0000
1010
0000
0011
0000
1010
0300
,
1001
0100
0101
0010
0100
0011
1001
0100
,
0012
0000
1000
0100
1000
0100
0010
0100
0010
0000
1100
0000
0110
0000
1000
0003
,
1010
0100
0011
0010
0100
1010
0101
1000
,
0100
0000
0001
0010
0100
0000
1000
0000
0100
0010
0001
0000
0110
0000
0000
0000
,
1111
0000
0010
0010
1011
0000
0100
0100
0101
0000
1000
1000
1110
0000
0001
0001
,
1001
0000
0010
0010
1011
0000
1000
1000
1100
0000
0001
0001
0111
0000
0100
0100
,
0101
0000
0001
0001
1011
0000
0100
0100
0110
0000
1000
1000
1110
0000
0100
0100
,
0110
0000
0010
0010
0111
0000
0100
0100
1100
0000
0010
0010
1011
0000
0001
0001
,
1111
0000
0100
0100
0111
0000
0001
0001
1101
0000
0010
0010
1110
0000
0001
0001
,
0111
0000
1000
1000
1101
0000
0100
0100
1110
0000
0010
0010
1110
0000
0001
0001
,
1101
0000
0100
0100
1110
0000
0010
0010
0111
0000
1000
1000
1101
0000
0001
0001
,
0111
0000
0000
0000
1100
0000
0000
0000
0101
0001
0001
0001
0001
0000
0000
0000
0011
0000
0000
0000
0110
0000
0000
0000
1100
1000
1000
1000
1000
0000
0000
0000
,
1201
0010
1000
0001
1010
0000
1001
0000
1000
0000
0001
0000
0011
0000
1000
0300
,
0021
1000
0001
0100
1001
0000
1100
0000
0001
0000
1100
0000
0101
0000
1001
0030
,
2101
0010
0001
0100
0011
0000
0110
0000
0001
0000
0100
0000
0011
0000
0001
3000
,
0102
1000
0010
0100
1010
0000
1100
0000
0100
0000
1010
0000
1100
0000
0110
0003
,
1210
0001
0010
1000
0011
0000
1010
0000
0001
0000
0010
0000
1001
0000
1000
0300
,
1020
0001
0100
1000
0101
0000
1001
0000
0100
0000
0101
0000
1001
0000
1100
0030
,
2101
0010
0100
0001
0110
0000
0011
0000
0100
0000
0011
0000
0110
0000
0011
3000
,
0112
0000
1100
0000
1110
0000
1100
0000
1110
0000
1100
0000
1110
0000
1100
0003
,
1111
0000
1000
0010
0100
0001
0010
0100
1000
0000
0111
0000
0110
0000
1101
0000
,
1110
0110
1001
0110
0011
1101
1100
0101
,
0111
0000
1000
0001
0100
0010
1000
0100
0001
0000
1110
0000
0011
0000
1100
0000
,
1011
1001
0101
1001
0110
1101
0101
0011
,
1111
0000
0001
0100
0010
1000
0100
1000
0001
0000
1110
0000
0011
0000
1110
0000
,
1101
0101
1010
0110
0101
1011
0110
1100
,
0111
0000
1000
0001
0010
0001
0010
0100
1000
0000
0111
0000
1001
0000
1011
0000
,
1110
1001
1100
0110
1001
1101
0011
0110
,
1111
0000
1000
0100
0010
1000
0001
0100
1000
0000
1101
0000
0011
0000
1011
0000
,
0111
1100
0110
0011
1001
0111
1010
0101
,
1110
0000
0010
0001
1000
0100
0001
0010
1000
0000
0111
0000
1001
0000
1010
0000
,
1110
0101
1010
0011
0110
1110
0011
1010
,
1111
0000
1000
0001
0010
1000
0001
0100
0010
0000
1101
0000
0110
0000
0111
0000
,
1101
0011
1100
0101
0011
1110
0101
0110
,
1101
0000
0010
1000
0100
0001
1000
0100
0010
0000
1101
0000
0011
0000
1110
0000
,
1101
0011
0110
1001
0101
1011
1100
0011
,
0100
0010
1000
0001
1000
0000
0000
0000
;

//---------------dance-single - ----------------
#NOTES:
     dance-single:
     :
     Medium:
     1:
     0.000,0.000,0.000,0.000,0.000,0.000,0.000,0.000,0.000,0.000:
0000
0000
0000
0000
;
